Зелёный фургон (Александр Павловский) [1983, приключения, комедия, DVB, AVC] + Sub Rus 

Цитировать
Зелёный фургон2 серии Жанр: приключения, комедия
Год выпуска: 1983
Продолжительность: 01:07:21 + 01:09:25
Субтитры: русские (телеканал Культура)-Режиссёр: Александр Павловский
В ролях: Дмитрий Харатьян, Борислав Брондуков, Александр Демьяненко, Александр Соловьев, Регимантас Адомайтис, Константин Григорьев, Эдуард Марцевич, Виктор Ильичев, Екатерина Дурова, Лев Перфилов, Юрий Дубровин, Виктор Павловский
Голос за кадром: Армен Джигарханян-Описание: Приключенческий фильм по мотивам одноименной повести Александра Козачинского. Это ностальгический, лиричный и пронзительный фильм о послереволюционной Одессе. О мальчике - гимназисте, мечтающем о карьере Шерлока Холмса и попадающем в тот завораживающий кошмар, который принято называть горнилом революции. Здесь причудливо и органично сочетаются юмор и романтика, жестокая правда и эксцентрика - и пронзительным серебряным горном звучит голос молодого Дмитрия Харатьяна, сыгравшего в этом фильме свою лучшую роль-Сэмпл: минута53сек-Качество видео: DVB
Формат видео: MKV
Видео: AVC, 720х576, 4:3, 25,000 кадров/сек, 2614 Кбит/сек
Аудио: MP2, 48,0 КГц, 192 Кбит/сек, 2 канала
Формат субтитров: softsub (SRT)

MediaInfo

Общее
Уникальный идентификатор : 250506606990703883196681467623475228379 (0xBC75D14C128F00B8A42A763A409BAEDB)
Полное имя : Зелёный фургон.1983.1серия.mkv
Формат : Matroska
Версия формата : Version 4 / Version 2
Размер файла : 1,32 Гбайт
Продолжительность : 1 ч. 7 м.
Общий поток : 2810 Кбит/сек
Название фильма : Зелёный фургон.1983.1серия_2017.07.10
Дата кодирования : UTC 2017-07-10 09:53:12
Программа кодирования : mkvmerge v8.3.0 ('Over the Horizon') 32bit
Библиотека кодирования : libebml v1.3.1 + libmatroska v1.4.2
Видео
Идентификатор : 1
Формат : AVC
Формат/Информация : Advanced Video Codec
Профиль формата : Main@L3
Параметр CABAC формата : Да
Параметр RefFrames формата : 3 кадра
Параметр GOP формата : M=4, N=28
Идентификатор кодека : V_MPEG4/ISO/AVC
Продолжительность : 1 ч. 7 м.
Битрейт : 2614 Кбит/сек
Ширина : 720 пикселей
Высота : 576 пикселей
Соотношение сторон : 4:3
Соотношение сторон в оригинале : 4:3
Режим частоты кадров : Переменный
Частота кадров : 25,129 кадров/сек
Частота кадров в оригинале : 25,000 кадров/сек
Стандарт вещания : Component
Цветовое пространство : YUV
Субдискретизация насыщенности : 4:2:0
Битовая глубина : 8 бит
Тип развёртки : Чересстрочная
Метод сохранения типа развёртки : Раздельные поля
Порядок развёртки : Верхнее поле первое
Бит/(Пиксели*Кадры) : 0.251
Размер потока : 1,23 Гбайт (93%)
Заголовок : Зелёный фургон.1983.1серия_2017.07.10
Язык : Russian
Default : Да
Forced : Нет
Цветовой диапазон : Limited
Основные цвета : BT.601 PAL
Характеристики трансфера : BT.470 System B, BT.470 System G
Коэффициенты матрицы : BT.601
Аудио
Идентификатор : 2
Формат : MPEG Audio
Версия формата : Version 1
Профиль формата : Layer 2
Идентификатор кодека : A_MPEG/L2
Идентификатор кодека/Подсказка : MP2
Продолжительность : 1 ч. 7 м.
Вид битрейта : Постоянный
Битрейт : 192 Кбит/сек
Каналы : 2 канала
Частота : 48,0 КГц
Частота кадров : 41,667 кадра/сек (1152 SPF)
Метод сжатия : С потерями
Размер потока : 92,5 Мбайт (7%)
Язык : Russian
Default : Да
Forced : Нет
Текст
Идентификатор : 3
Формат : UTF-8
Идентификатор кодека : S_TEXT/UTF8
Идентификатор кодека/Информация : UTF-8 Plain Text
Продолжительность : 1 ч. 7 м.
Битрейт : 126 бит/сек
ElementCount : 877
Размер потока : 62,1 Кбайт (0%)
Язык : Russian
Default : Нет
Forced : Нет
Общее
Уникальный идентификатор : 225888723008416081016484378675337247046 (0xA9F095E82FAACF70888BCB0C47203946)
Полное имя : Зелёный фургон.1983.2серия.mkv
Формат : Matroska
Версия формата : Version 4 / Version 2
Размер файла : 1,36 Гбайт
Продолжительность : 1 ч. 9 м.
Общий поток : 2809 Кбит/сек
Название фильма : Зелёный фургон.1983.2серия_2017.07.08
Дата кодирования : UTC 2017-07-08 14:36:55
Программа кодирования : mkvmerge v8.3.0 ('Over the Horizon') 32bit
Библиотека кодирования : libebml v1.3.1 + libmatroska v1.4.2
Видео
Идентификатор : 1
Формат : AVC
Формат/Информация : Advanced Video Codec
Профиль формата : Main@L3
Параметр CABAC формата : Да
Параметр RefFrames формата : 3 кадра
Идентификатор кодека : V_MPEG4/ISO/AVC
Продолжительность : 1 ч. 9 м.
Битрейт : 2613 Кбит/сек
Ширина : 720 пикселей
Высота : 576 пикселей
Соотношение сторон : 4:3
Соотношение сторон в оригинале : 4:3
Режим частоты кадров : Переменный
Частота кадров : 25,067 кадров/сек
Частота кадров в оригинале : 25,000 кадров/сек
Стандарт вещания : Component
Цветовое пространство : YUV
Субдискретизация насыщенности : 4:2:0
Битовая глубина : 8 бит
Тип развёртки : Чересстрочная
Метод сохранения типа развёртки : Раздельные поля
Порядок развёртки : Верхнее поле первое
Бит/(Пиксели*Кадры) : 0.251
Размер потока : 1,27 Гбайт (93%)
Заголовок : Зелёный фургон.1983.2серия_2017.07.08
Язык : Russian
Default : Да
Forced : Нет
Цветовой диапазон : Limited
Основные цвета : BT.601 PAL
Характеристики трансфера : BT.470 System B, BT.470 System G
Коэффициенты матрицы : BT.601
Аудио
Идентификатор : 2
Формат : MPEG Audio
Версия формата : Version 1
Профиль формата : Layer 2
Идентификатор кодека : A_MPEG/L2
Идентификатор кодека/Подсказка : MP2
Продолжительность : 1 ч. 9 м.
Вид битрейта : Постоянный
Битрейт : 192 Кбит/сек
Каналы : 2 канала
Частота : 48,0 КГц
Частота кадров : 41,667 кадра/сек (1152 SPF)
Метод сжатия : С потерями
Размер потока : 95,3 Мбайт (7%)
Язык : Russian
Default : Да
Forced : Нет
Текст
Идентификатор : 3
Формат : UTF-8
Идентификатор кодека : S_TEXT/UTF8
Идентификатор кодека/Информация : UTF-8 Plain Text
Продолжительность : 1 ч. 8 м.
Битрейт : 128 бит/сек
ElementCount : 941
Размер потока : 65,0 Кбайт (0%)
Язык : Russian
Default : Нет
Forced : Нет
Вы не можете начинать темы
Вы не можете отвечать на сообщения
Вы не можете редактировать свои сообщения
Вы не можете удалять свои сообщения
Вы не можете голосовать в опросах
Вы не можете прикреплять файлы к сообщениям
Вы можете скачивать файлы
!ВНИМАНИЕ!

Сайт не предоставляет электронные версии произведений, а занимается лишь коллекционированием и каталогизацией ссылок, присылаемых и публикуемых на форуме нашими читателями. Если вы являетесь правообладателем какого-либо представленного материала и не желаете, чтобы ссылка на него находилась в нашем каталоге, свяжитесь с нами, и мы незамедлительно удалим ее. Файлы для обмена на трекере предоставлены пользователями сайта, и администрация не несет ответственности за их содержание. Просьба не заливать файлы, защищенные авторскими правами, а также файлы нелегального содержания!

Искали программы, игры, дополнения, музыка mp3, аниме, аудио книги, журналы? Добро пожаловать на свободный торрент трекер Torrents, у нас можно скачать бесплатно, без смс и регистрации и прочих ограничений лучшие, отборные сборки программ, игр. Скачать торрентом не составит труда даже не опытному пользователю. Раздачи ежедневно обновляются, только лучшие и качественные раздачи, подробные описания и скриншоты. Огромная коллекция программ для работы со звуком, графикой, дизайном, а так же множество плагинов и инструментов к ним с подробной инструкцией и рекомендациями. Прошивки для навигаторов, карты. Разнообразные игры, для Windows, Linux. В коллекцие есть и старые игры любых жанров, Rpg, Action, Shooter, strategy Множество дополнений, модификаций, сценариев для популярных игр в жанре экш, рпг, гонки, стратегии, логические игры. Множество аддонов и сценариев для Microsoft Flight Simulator Большая коллекция книг, учебников. Если нет возможности купить печатное издание - смело скачивайте цифровую версию книги или, быть может, журнала. Не любите читать - можно загрузить бесплатно аудикнигу. Для веб дизайнеров и программистов так же найдется множество специализированного софта, таких как: редакторы с подсветкой, среды программирования, компоненты, системы управления базами данных, разнообразные скрипты и шаблоны. Не так давно у нас появился материал для автолюбителей и владельцев мото - оригинальные и неоригинальные каталоги запчастей, книги и журналы по ремонту и обслуживанию, видеоуроки, статьи по чип тюнингу, прошивкам. Процедура получения контента элементарная, достаточно просто скачать торрент файл и добавить его в загрузку в вашем торрент клиенте. Если у вас нет специального торрент клиента, вы можете его скачать у нас.