Женщина издалека (Тахир Сабиров) [1978, Военный, драма, DVDRip] 

Цитировать
Женщина издалека
Жанр: Военный, драма
Страна: СССР
Студия: Таджикфильм
Год выпуска: 1978
Продолжительность: 01:12:37
Режиссёр: Тахир Сабиров
В ролях:
Ирина Калиновская … Дарья
Хашим Гадоев … Саша Расулов
Ситора Алиева … Лейла, дочь Дарьи и Саши
Олег Вершковский
Соджида Гулямова
Юрий Дедович … главврач
Ирина Егорова
Александр Фатюшин … танкист, лейтенант
Владимир Плотников … солдат с махоркой
Камол Саидмурадов … Джавлон
Савринисо Сабзалиева … С.Сабзалиева
Нина Тер-Осипян
Зоя Толбузина … пасажирка поезда
Дильбар Умарова … Заханчирова
Е.Филатов
Юнус Юсупов … Нозим
Описание: Молодая украинка Дарья выходит замуж за солдата-таджика Расулова и уезжает в его аул. У них рождается дочь, а вскоре начинается Великая Отечественная война. Муж ранен на фронте и теряет зрение. Долгая борьба Дарьи за возвращение Расулова к жизни приносит плоды - он начинает видеть...
Дополнительная информация: Релиз:
Автор рипа: pmv
Большое спасибо за:
- исходный DVD5 и разрешение на раздачу - Доброму человеку
* Представленный в раздаче фильм из собрания ГФФ, выпущен в подарочном исполнении и является раритетом.
* Фильм раздаётся исключительно в ознакомительных целях и коммерческому распространению не подлежит.
Поэтому ПРОСЬБА к скачавшим фильм НЕ РАЗДАВАТЬ данный рип на каких-либо сторонних ресурсах.

Кинопоиск = - (4) - http://www.kinopoisk.ru/film/zhenshhina-izdaleka-1978-596030/
Кинотеатр = http://www.kino-teatr.ru/kino/movie/sov/10138/annot/
ПРОСЬБА к СКАЧАВШИМ. НЕ УХОДИТЕ С РАЗДАЧИ, ПОМОГИТЕ ДРУГИМ СКАЧАТЬ!!!
Качество видео: DVDRip
Формат видео: AVI
Видео: 704x336 (2.10:1), 25 fps, XviD build 73 ~1203 kbps avg, 0.20 bit/pixel
Аудио: AC3, 48 KHz, stereo (2 ch), 192 kbps

MediaInfo

General
Complete name : D:\torrents\Женщина издалека (1978).avi
Format : AVI
Format/Info : Audio Video Interleave
File size : 730 MiB
Duration : 1 h 12 min
Overall bit rate : 1 405 kb/s
Writing application : VirtualDubMod 1.5.10.3 | www.virtualdub-fr.org || (build 2550/release)
Writing library : VirtualDub build 35576/release
Video
ID : 0
Format : MPEG-4 Visual
Format profile : Advanced Simple@L5
Format settings, BVOP : 2
Format settings, QPel : No
Format settings, GMC : No warppoints
Format settings, Matrix : Default (H.263)
Codec ID : XVID
Codec ID/Hint : XviD
Duration : 1 h 12 min
Bit rate : 1 203 kb/s
Width : 704 pixels
Height : 336 pixels
Display aspect ratio : 2.095
Frame rate : 25.000 FPS
Color space : YUV
Chroma subsampling : 4:2:0
Bit depth : 8 bits
Scan type : Progressive
Compression mode : Lossy
Bits/(Pixel*Frame) : 0.203
Stream size : 625 MiB (86%)
Writing library : XviD 73
Audio
ID : 1
Format : AC-3
Format/Info : Audio Coding 3
Mode extension : CM (complete main)
Format settings, Endianness : Big
Codec ID : 2000
Duration : 1 h 12 min
Bit rate mode : Constant
Bit rate : 192 kb/s
Channel(s) : 2 channels
Channel positions : Front: L R
Sampling rate : 48.0 kHz
Frame rate : 31.250 FPS (1536 spf)
Bit depth : 16 bits
Compression mode : Lossy
Stream size : 99.7 MiB (14%)
Alignment : Aligned on interleaves
Interleave, duration : 40 ms (1.00 video frame)
Interleave, preload duration : 512 ms
МОИ РАЗДАЧИ НА РУТРЕКЕРЕ: http://rutracker.org/forum/tracker.php?rid=27390064
Вы не можете начинать темы
Вы не можете отвечать на сообщения
Вы не можете редактировать свои сообщения
Вы не можете удалять свои сообщения
Вы не можете голосовать в опросах
Вы не можете прикреплять файлы к сообщениям
Вы можете скачивать файлы
!ВНИМАНИЕ!

Сайт не предоставляет электронные версии произведений, а занимается лишь коллекционированием и каталогизацией ссылок, присылаемых и публикуемых на форуме нашими читателями. Если вы являетесь правообладателем какого-либо представленного материала и не желаете, чтобы ссылка на него находилась в нашем каталоге, свяжитесь с нами, и мы незамедлительно удалим ее. Файлы для обмена на трекере предоставлены пользователями сайта, и администрация не несет ответственности за их содержание. Просьба не заливать файлы, защищенные авторскими правами, а также файлы нелегального содержания!

Искали программы, игры, дополнения, музыка mp3, аниме, аудио книги, журналы? Добро пожаловать на свободный торрент трекер Torrents, у нас можно скачать бесплатно, без смс и регистрации и прочих ограничений лучшие, отборные сборки программ, игр. Скачать торрентом не составит труда даже не опытному пользователю. Раздачи ежедневно обновляются, только лучшие и качественные раздачи, подробные описания и скриншоты. Огромная коллекция программ для работы со звуком, графикой, дизайном, а так же множество плагинов и инструментов к ним с подробной инструкцией и рекомендациями. Прошивки для навигаторов, карты. Разнообразные игры, для Windows, Linux. В коллекцие есть и старые игры любых жанров, Rpg, Action, Shooter, strategy Множество дополнений, модификаций, сценариев для популярных игр в жанре экш, рпг, гонки, стратегии, логические игры. Множество аддонов и сценариев для Microsoft Flight Simulator Большая коллекция книг, учебников. Если нет возможности купить печатное издание - смело скачивайте цифровую версию книги или, быть может, журнала. Не любите читать - можно загрузить бесплатно аудикнигу. Для веб дизайнеров и программистов так же найдется множество специализированного софта, таких как: редакторы с подсветкой, среды программирования, компоненты, системы управления базами данных, разнообразные скрипты и шаблоны. Не так давно у нас появился материал для автолюбителей и владельцев мото - оригинальные и неоригинальные каталоги запчастей, книги и журналы по ремонту и обслуживанию, видеоуроки, статьи по чип тюнингу, прошивкам. Процедура получения контента элементарная, достаточно просто скачать торрент файл и добавить его в загрузку в вашем торрент клиенте. Если у вас нет специального торрент клиента, вы можете его скачать у нас.