Король Лир (Григорий Козинцев) [1970, драма, DVDRip-AVC] 

Цитировать
Король Лир- Жанр: драма
Год выпуска: 1970
Продолжительность: 02:11:46
Субтитры: русские, французские, английские-Режиссёр: Григорий Козинцев-В ролях:
Юри Ярвет, Эльза Радзиня, Галина Волчек, Валентина Шендрикова, Олег Даль, Карл Себрис, Леонхард Мерзин, Регимантас Адомайтис, Донатас Банионис, Алексей Петренко, Юозас Будрайтис, Владимир Емельянов, Александр Вокач
Описание:
Экранизация одноименной трагедии Уильяма Шекспира.
История короля Лира, решившего на склоне лет удалиться от дел и разделить королевство между тремя дочерьми. Изгнание младшей дочери Корделии и междуусобная война между старшими сестрами приводят к череде трагических событий.-Сэмпл | Кинопоиск-Качество видео: DVDRip-AVC, спасибо hund за исходник.
Формат видео: MKV
Видео: x264: (High@L4.1); 706@1004x438, Display aspect ratio 2.292:1, 25.000 fps, 2138 Kbps
Аудио: Оригинал: AC-3; 16 bits 48 Khz; 1.0ch 224 Kbps; CBR
Формат субтитров: softsub (SRT)

Исходник, сравнения

http://rutracker.org/forum/viewtopic.php?t=168542
* В площади кадра справа паразитный баннер в 6 столбцов, горизонтальная репликация 7 полезного пикселя. Общий кроп в рипе справа 12.

Сравнение с исходником:
http://screenshotcomparison.com/comparison/215264
Сравнение с dvdrip
http://rutracker.org/forum/viewtopic.php?t=3002118
http://screenshotcomparison.com/comparison/215266

MediaInfo

avs [info]: 706x438p 64:45 @ 25/1 fps (cfr)
x264 [info]: using SAR=64/45
x264 [info]: profile High, level 4.1
x264 [info]: frame I:978 Avg QP:16.92 size: 49857
x264 [info]: frame P:40395 Avg QP:19.63 size: 21656
x264 [info]: frame B:156300 Avg QP:21.87 size: 7612
x264 [info]: consecutive B-frames: 0.9% 1.5% 6.4% 20.6% 13.7% 49.4% 4.5% 1.4% 0.9% 0.3% 0.2% 0.2%
x264 [info]: Weighted P-Frames: Y:21.7% UV:0.0%
x264 [info]: ref P L0: 37.5% 13.2% 16.3% 6.7% 5.5% 3.9% 3.7% 2.0% 2.0% 1.6% 1.6% 1.3% 1.4% 1.2% 1.2% 0.8%
x264 [info]: ref B L0: 78.4% 9.4% 3.5% 1.9% 1.3% 1.2% 0.9% 0.6% 0.5% 0.5% 0.4% 0.4% 0.4% 0.3% 0.1%
x264 [info]: ref B L1: 96.2% 3.8%
x264 [info]: kb/s:2138.13--General
Unique ID : 206310163659278901791226499767982477051 (0x9B35E4675E6DB629A9082ED25169CEFB)
Complete name : Король Лир.1970.mkv
Format : Matroska
Format version : Version 2
File size : 2.18 GiB
Duration : 2 h 11 min
Overall bit rate : 2 364 kb/s
Encoded date : UTC 2017-07-09 12:51:58
Writing application : mkvmerge v7.8.0 ('River Man') 32bit built on Mar 27 2015 16:18:02
Writing library : libebml v1.3.1 + libmatroska v1.4.2
Video
ID : 1
Format : AVC
Format/Info : Advanced Video Codec
Format profile : High@L4.1
Format settings, CABAC : Yes
Format settings, ReFrames : 16 frames
Codec ID : V_MPEG4/ISO/AVC
Duration : 2 h 11 min
Bit rate : 2 138 kb/s
Width : 706 pixels
Height : 438 pixels
Display aspect ratio : 2.25:1
Frame rate mode : Constant
Frame rate : 25.000 FPS
Color space : YUV
Chroma subsampling : 4:2:0
Bit depth : 8 bits
Scan type : Progressive
Bits/(Pixel*Frame) : 0.277
Stream size : 1.93 GiB (89%)
Title : Король Лир.1970
Writing library : x264 core 150 r2833kMod df79067
Encoding settings : cabac=1 / ref=16 / deblock=1:-3:-1 / analyse=0x3:0x133 / me=umh / subme=11 / psy=1 / fade_compensate=0.00 / psy_rd=1.00:0.20 / mixed_ref=1 / me_range=48 / chroma_me=1 / trellis=2 / 8x8dct=1 / cqm=0 / deadzone=21,11 / fast_pskip=0 / chroma_qp_offset=-3 / threads=12 / lookahead_threads=3 / sliced_threads=0 / nr=0 / decimate=0 / interlaced=0 / bluray_compat=0 / constrained_intra=0 / bframes=11 / b_pyramid=2 / b_adapt=2 / b_bias=0 / direct=3 / weightb=1 / open_gop=0 / weightp=2 / keyint=250 / keyint_min=25 / scenecut=40 / intra_refresh=0 / rc_lookahead=60 / rc=2pass / mbtree=0 / bitrate=2138 / ratetol=1.0 / qcomp=0.60 / qpmin=0 / qpmax=69 / qpstep=4 / cplxblur=20.0 / qblur=0.5 / vbv_maxrate=62500 / vbv_bufsize=78125 / nal_hrd=none / filler=0 / ip_ratio=1.40 / pb_ratio=1.30 / aq=1:0.40
Language : Russian
Default : Yes
Forced : No
Color range : Limited
Color primaries : BT.601 PAL
Transfer characteristics : BT.470 System B, BT.470 System G
Matrix coefficients : BT.601
Audio
ID : 2
Format : AC-3
Format/Info : Audio Coding 3
Mode extension : CM (complete main)
Format settings, Endianness : Big
Codec ID : A_AC3
Duration : 2 h 11 min
Bit rate mode : Constant
Bit rate : 224 kb/s
Channel(s) : 1 channel
Channel positions : Front: C
Sampling rate : 48.0 kHz
Frame rate : 31.250 FPS (1536 spf)
Compression mode : Lossy
Stream size : 211 MiB (9%)
Title : Оригинал: AC-3; 16 bits 48 Khz; 1.0ch 224 Kbps; CBR
Language : Russian
Default : Yes
Forced : No
Text #1
ID : 3
Format : UTF-8
Codec ID : S_TEXT/UTF8
Codec ID/Info : UTF-8 Plain Text
Language : Russian
Default : No
Forced : No
Text #2
ID : 4
Format : UTF-8
Codec ID : S_TEXT/UTF8
Codec ID/Info : UTF-8 Plain Text
Language : French
Default : No
Forced : No
Text #3
ID : 5
Format : UTF-8
Codec ID : S_TEXT/UTF8
Codec ID/Info : UTF-8 Plain Text
Language : English
Default : No
Forced : No
Menu
00:00:00.000 : ru:Часть I. Титры. Вступление
00:04:52.840 : ru:Раздел королевства
00:16:49.000 : ru:Отречение от дочери
00:23:58.280 : ru:Подлая клевета
00:29:50.160 : ru:Король без власти
00:40:05.320 : ru:"Седлать коней!"
00:46:55.760 : ru:С поручением от короля
00:53:54.040 : ru:Отверженный отец
01:06:51.360 : ru:Часть II. Бездомные
01:19:20.320 : ru:Дворцовые интриги
01:25:45.640 : ru:Изгнанники
01:32:07.720 : ru:Безумство
01:41:14.680 : ru:Преданность дочери
01:53:49.320 : ru:Обретение покоя
01:58:40.480 : ru:Небесный суд
02:06:08.240 : ru:"Конец времен и прекращенье дней"

Скриншоты

Вы не можете начинать темы
Вы не можете отвечать на сообщения
Вы не можете редактировать свои сообщения
Вы не можете удалять свои сообщения
Вы не можете голосовать в опросах
Вы не можете прикреплять файлы к сообщениям
Вы можете скачивать файлы
!ВНИМАНИЕ!

Сайт не предоставляет электронные версии произведений, а занимается лишь коллекционированием и каталогизацией ссылок, присылаемых и публикуемых на форуме нашими читателями. Если вы являетесь правообладателем какого-либо представленного материала и не желаете, чтобы ссылка на него находилась в нашем каталоге, свяжитесь с нами, и мы незамедлительно удалим ее. Файлы для обмена на трекере предоставлены пользователями сайта, и администрация не несет ответственности за их содержание. Просьба не заливать файлы, защищенные авторскими правами, а также файлы нелегального содержания!

Искали программы, игры, дополнения, музыка mp3, аниме, аудио книги, журналы? Добро пожаловать на свободный торрент трекер Torrents, у нас можно скачать бесплатно, без смс и регистрации и прочих ограничений лучшие, отборные сборки программ, игр. Скачать торрентом не составит труда даже не опытному пользователю. Раздачи ежедневно обновляются, только лучшие и качественные раздачи, подробные описания и скриншоты. Огромная коллекция программ для работы со звуком, графикой, дизайном, а так же множество плагинов и инструментов к ним с подробной инструкцией и рекомендациями. Прошивки для навигаторов, карты. Разнообразные игры, для Windows, Linux. В коллекцие есть и старые игры любых жанров, Rpg, Action, Shooter, strategy Множество дополнений, модификаций, сценариев для популярных игр в жанре экш, рпг, гонки, стратегии, логические игры. Множество аддонов и сценариев для Microsoft Flight Simulator Большая коллекция книг, учебников. Если нет возможности купить печатное издание - смело скачивайте цифровую версию книги или, быть может, журнала. Не любите читать - можно загрузить бесплатно аудикнигу. Для веб дизайнеров и программистов так же найдется множество специализированного софта, таких как: редакторы с подсветкой, среды программирования, компоненты, системы управления базами данных, разнообразные скрипты и шаблоны. Не так давно у нас появился материал для автолюбителей и владельцев мото - оригинальные и неоригинальные каталоги запчастей, книги и журналы по ремонту и обслуживанию, видеоуроки, статьи по чип тюнингу, прошивкам. Процедура получения контента элементарная, достаточно просто скачать торрент файл и добавить его в загрузку в вашем торрент клиенте. Если у вас нет специального торрент клиента, вы можете его скачать у нас.