Любить... (Михаил Калик, Инна Туманян) [1968, мелодрама, DVB, AVC] 

Цитировать
Любить...
Жанр: мелодрама
Год выпуска: 1968
Продолжительность: 01:10:26-Режиссёр: Михаил Калик, Инна (Инесса) Туманян
В ролях: Алексей Эйбоженко, Марианна Вертинская, Игорь Кваша, Екатерина Васильева, Валентин Никулин, Андрей Миронов, Анастасия Вознесенская, Сергей Гурзо младший, Наталья Четверикова, Алиса Фрейндлих, Лев Круглый, Светлана Светличная, Елизавета Никищихина, Антонина Лефтий, Георге Ион Швитки, Людмила Вагнер, Наум Кавуновский
Голос на плёнке: Валентина Караваева-Описание: Четыре киноновеллы о любви по мотивам рассказов И.Друцэ, А.Зака, И.Кузнецова, Ю.Казакова, В.Сапожникова объединены в лирическую киноповесть кадрами хроники конца 60-х годов.
Режиссер хроники Инна Туманян берет интервью у людей на улицах и задает один и тот же "простенький" вопрос, над которым человечество ломает голову уже миллион лет: "Что значит любить?". На него пытаются ответить и безымянные прохожие, и священник Александр Мень, чьи размышления перед кинокамерой складываются в своеобразный философский монолог-Доп. информация: Новая редакция фильма (1992 год)
Звук здесь немного лучше:
Культура
Дом Кино
TVRip
Семпл: минута58сек-Качество видео: DVB
Формат видео: MKV
Видео: AVC, 720х576, 4:3, 25,000 кадров/сек, 2603 Кбит/сек
Аудио: MP2, 48,0 КГц, 192 Кбит/сек, 2 канала

MediaInfo

Общее
Уникальный идентификатор : 209443392778785163185461671431293764947 (0x9D915486B873E269BC5FAF5CF95A0553)
Полное имя : Любить...1968.mkv
Формат : Matroska
Версия формата : Version 4 / Version 2
Размер файла : 1,38 Гбайт
Продолжительность : 1 ч. 10 м.
Общий поток : 2799 Кбит/сек
Название фильма : Любить...1968_2017.01.29
Дата кодирования : UTC 2017-07-26 11:36:01
Программа кодирования : mkvmerge v8.3.0 ('Over the Horizon') 32bit
Библиотека кодирования : libebml v1.3.1 + libmatroska v1.4.2
Видео
Идентификатор : 1
Формат : AVC
Формат/Информация : Advanced Video Codec
Профиль формата : Main@L3
Параметр CABAC формата : Да
Параметр RefFrames формата : 3 кадра
Идентификатор кодека : V_MPEG4/ISO/AVC
Продолжительность : 1 ч. 10 м.
Битрейт : 2603 Кбит/сек
Ширина : 720 пикселей
Высота : 576 пикселей
Соотношение сторон : 4:3
Соотношение сторон в оригинале : 4:3
Режим частоты кадров : Переменный
Частота кадров : 50,000 кадров/сек
Частота кадров в оригинале : 25,000 кадров/сек
Стандарт вещания : Component
Цветовое пространство : YUV
Субдискретизация насыщенности : 4:2:0
Битовая глубина : 8 бит
Тип развёртки : Чересстрочная
Метод сохранения типа развёртки : Раздельные поля
Порядок развёртки : Верхнее поле первое
Бит/(Пиксели*Кадры) : 0.126
Размер потока : 1,28 Гбайт (93%)
Заголовок : Любить...1968_2017.01.29
Язык : Russian
Default : Да
Forced : Нет
Цветовой диапазон : Limited
Основные цвета : BT.601 PAL
Характеристики трансфера : BT.470 System B, BT.470 System G
Коэффициенты матрицы : BT.601
Аудио
Идентификатор : 2
Формат : MPEG Audio
Версия формата : Version 1
Профиль формата : Layer 2
Идентификатор кодека : A_MPEG/L2
Идентификатор кодека/Подсказка : MP2
Продолжительность : 1 ч. 10 м.
Вид битрейта : Постоянный
Битрейт : 192 Кбит/сек
Каналы : 2 канала
Частота : 48,0 КГц
Частота кадров : 41,667 кадра/сек (1152 SPF)
Метод сжатия : С потерями
Размер потока : 96,7 Мбайт (7%)
Язык : Russian
Default : Да
Forced : Нет
Вы не можете начинать темы
Вы не можете отвечать на сообщения
Вы не можете редактировать свои сообщения
Вы не можете удалять свои сообщения
Вы не можете голосовать в опросах
Вы не можете прикреплять файлы к сообщениям
Вы можете скачивать файлы
!ВНИМАНИЕ!

Сайт не предоставляет электронные версии произведений, а занимается лишь коллекционированием и каталогизацией ссылок, присылаемых и публикуемых на форуме нашими читателями. Если вы являетесь правообладателем какого-либо представленного материала и не желаете, чтобы ссылка на него находилась в нашем каталоге, свяжитесь с нами, и мы незамедлительно удалим ее. Файлы для обмена на трекере предоставлены пользователями сайта, и администрация не несет ответственности за их содержание. Просьба не заливать файлы, защищенные авторскими правами, а также файлы нелегального содержания!

Искали программы, игры, дополнения, музыка mp3, аниме, аудио книги, журналы? Добро пожаловать на свободный торрент трекер Torrents, у нас можно скачать бесплатно, без смс и регистрации и прочих ограничений лучшие, отборные сборки программ, игр. Скачать торрентом не составит труда даже не опытному пользователю. Раздачи ежедневно обновляются, только лучшие и качественные раздачи, подробные описания и скриншоты. Огромная коллекция программ для работы со звуком, графикой, дизайном, а так же множество плагинов и инструментов к ним с подробной инструкцией и рекомендациями. Прошивки для навигаторов, карты. Разнообразные игры, для Windows, Linux. В коллекцие есть и старые игры любых жанров, Rpg, Action, Shooter, strategy Множество дополнений, модификаций, сценариев для популярных игр в жанре экш, рпг, гонки, стратегии, логические игры. Множество аддонов и сценариев для Microsoft Flight Simulator Большая коллекция книг, учебников. Если нет возможности купить печатное издание - смело скачивайте цифровую версию книги или, быть может, журнала. Не любите читать - можно загрузить бесплатно аудикнигу. Для веб дизайнеров и программистов так же найдется множество специализированного софта, таких как: редакторы с подсветкой, среды программирования, компоненты, системы управления базами данных, разнообразные скрипты и шаблоны. Не так давно у нас появился материал для автолюбителей и владельцев мото - оригинальные и неоригинальные каталоги запчастей, книги и журналы по ремонту и обслуживанию, видеоуроки, статьи по чип тюнингу, прошивкам. Процедура получения контента элементарная, достаточно просто скачать торрент файл и добавить его в загрузку в вашем торрент клиенте. Если у вас нет специального торрент клиента, вы можете его скачать у нас.