Дело Румянцева (Иосиф Хейфиц) [1955, детектив, драма, DVDRip-AVC] 

Цитировать
Дело Румянцева- Жанр: детектив, драма
Год выпуска: 1955
Продолжительность: 01:37:07-Режиссёр: Иосиф Хейфиц
В ролях:
Алексей Баталов, Нелли Подгорная, Сергей Лукьянов, Геннадий Юхтин, Владимир Лепко, Евгений Леонов, Николай Крючков, Виктор Чекмарев, Петр Лобанов, Антс Эскола
Описание:
Ничего не подозревающий шофёр Румянцев едет в рейс с краденым грузом, становясь невольным пособником преступления. Честного парня обвиняют в хищении дефицитного товара. На защиту своего товарища дружно встаёт коллектив автобазы и помогает следователю, полковнику Афанасьеву найти и разоблачить истинных преступников.-Исходник | Сэмпл | Кинопоиск-Качество видео: DVDRip-AVC, спасибо Дикий Брюс за диск.
Формат видео: MKV
Видео: x264: (High@L4.1); 718@765x556, Display aspect ratio 1.376:1, 25.000 fps, 3000 Kbps
Аудио: Оригинал: AC-3; 16 bits 48 Khz; 2.0ch 192 Kbps; CBR

MediaInfo

avs [info]: 718x556p 16:15 @ 25/1 fps (cfr)
x264 [info]: using SAR=16/15
x264 [info]: profile High, level 4.1
x264 [info]: frame I:742 Avg QP:18.16 size: 58564
x264 [info]: frame P:27496 Avg QP:20.88 size: 27934
x264 [info]: frame B:117447 Avg QP:23.40 size: 11701
x264 [info]: consecutive B-frames: 0.8% 1.2% 4.3% 13.6% 12.0% 53.3% 6.7% 2.4% 2.2% 1.0% 0.8% 1.5% 0.2%
x264 [info]: ref P L0: 34.0% 9.0% 14.5% 8.6% 6.7% 5.4% 4.6% 2.7% 2.5% 2.2% 2.0% 1.9% 1.7% 1.6% 1.6% 1.1%
x264 [info]: ref B L0: 72.2% 10.1% 4.9% 2.7% 2.0% 1.7% 1.4% 0.9% 0.8% 0.7% 0.6% 0.6% 0.6% 0.4% 0.2%
x264 [info]: ref B L1: 94.9% 5.1%
x264 [info]: kb/s:3000.34--General
Unique ID : 174314802523035867793581966456896044651 (0x8323CF4E9680DCF7B04E26F6B61F3E6B)
Complete name : Дело Румянцева.1955.mkv
Format : Matroska
Format version : Version 2
File size : 2.17 GiB
Duration : 1 h 37 min
Overall bit rate : 3 194 kb/s
Encoded date : UTC 2017-07-26 14:49:41
Writing application : mkvmerge v7.8.0 ('River Man') 32bit built on Mar 27 2015 16:18:02
Writing library : libebml v1.3.1 + libmatroska v1.4.2
Video
ID : 1
Format : AVC
Format/Info : Advanced Video Codec
Format profile : High@L4.1
Format settings, CABAC : Yes
Format settings, ReFrames : 16 frames
Codec ID : V_MPEG4/ISO/AVC
Duration : 1 h 37 min
Bit rate : 3 000 kb/s
Width : 718 pixels
Height : 556 pixels
Display aspect ratio : 1.376
Original display aspect rat : 1.377
Frame rate mode : Constant
Frame rate : 25.000 FPS
Color space : YUV
Chroma subsampling : 4:2:0
Bit depth : 8 bits
Scan type : Progressive
Bits/(Pixel*Frame) : 0.301
Stream size : 1.99 GiB (92%)
Title : Дело Румянцева.1955
Writing library : x264 core 150 r2833kMod df79067
Encoding settings : cabac=1 / ref=16 / deblock=1:-2:-2 / analyse=0x3:0x133 / me=umh / subme=11 / psy=1 / fade_compensate=0.00 / psy_rd=1.00:0.20 / mixed_ref=1 / me_range=32 / chroma_me=1 / trellis=2 / 8x8dct=1 / cqm=0 / deadzone=21,11 / fast_pskip=0 / chroma_qp_offset=-3 / threads=12 / lookahead_threads=3 / sliced_threads=0 / nr=0 / decimate=0 / interlaced=0 / bluray_compat=0 / constrained_intra=0 / bframes=12 / b_pyramid=2 / b_adapt=2 / b_bias=0 / direct=3 / weightb=1 / open_gop=0 / weightp=2 / keyint=250 / keyint_min=25 / scenecut=40 / intra_refresh=0 / rc_lookahead=60 / rc=2pass / mbtree=0 / bitrate=3000 / ratetol=1.0 / qcomp=0.60 / qpmin=0 / qpmax=69 / qpstep=4 / cplxblur=20.0 / qblur=0.5 / vbv_maxrate=62500 / vbv_bufsize=78125 / nal_hrd=none / filler=0 / ip_ratio=1.35 / pb_ratio=1.30 / aq=1:0.60
Language : Russian
Default : Yes
Forced : No
Color range : Limited
Color primaries : BT.601 PAL
Transfer characteristics : BT.470 System B, BT.470 System G
Matrix coefficients : BT.601
Audio
ID : 2
Format : AC-3
Format/Info : Audio Coding 3
Mode extension : CM (complete main)
Format settings, Endianness : Big
Codec ID : A_AC3
Duration : 1 h 37 min
Bit rate mode : Constant
Bit rate : 192 kb/s
Channel(s) : 2 channels
Channel positions : Front: L R
Sampling rate : 48.0 kHz
Frame rate : 31.250 FPS (1536 spf)
Compression mode : Lossy
Stream size : 133 MiB (6%)
Title : Оригинал: AC-3; 16 bits 48 Khz; 2.0ch 192 Kbps; CBR
Language : Russian
Default : Yes
Forced : No
Вы не можете начинать темы
Вы не можете отвечать на сообщения
Вы не можете редактировать свои сообщения
Вы не можете удалять свои сообщения
Вы не можете голосовать в опросах
Вы не можете прикреплять файлы к сообщениям
Вы можете скачивать файлы
!ВНИМАНИЕ!

Сайт не предоставляет электронные версии произведений, а занимается лишь коллекционированием и каталогизацией ссылок, присылаемых и публикуемых на форуме нашими читателями. Если вы являетесь правообладателем какого-либо представленного материала и не желаете, чтобы ссылка на него находилась в нашем каталоге, свяжитесь с нами, и мы незамедлительно удалим ее. Файлы для обмена на трекере предоставлены пользователями сайта, и администрация не несет ответственности за их содержание. Просьба не заливать файлы, защищенные авторскими правами, а также файлы нелегального содержания!

Искали программы, игры, дополнения, музыка mp3, аниме, аудио книги, журналы? Добро пожаловать на свободный торрент трекер Torrents, у нас можно скачать бесплатно, без смс и регистрации и прочих ограничений лучшие, отборные сборки программ, игр. Скачать торрентом не составит труда даже не опытному пользователю. Раздачи ежедневно обновляются, только лучшие и качественные раздачи, подробные описания и скриншоты. Огромная коллекция программ для работы со звуком, графикой, дизайном, а так же множество плагинов и инструментов к ним с подробной инструкцией и рекомендациями. Прошивки для навигаторов, карты. Разнообразные игры, для Windows, Linux. В коллекцие есть и старые игры любых жанров, Rpg, Action, Shooter, strategy Множество дополнений, модификаций, сценариев для популярных игр в жанре экш, рпг, гонки, стратегии, логические игры. Множество аддонов и сценариев для Microsoft Flight Simulator Большая коллекция книг, учебников. Если нет возможности купить печатное издание - смело скачивайте цифровую версию книги или, быть может, журнала. Не любите читать - можно загрузить бесплатно аудикнигу. Для веб дизайнеров и программистов так же найдется множество специализированного софта, таких как: редакторы с подсветкой, среды программирования, компоненты, системы управления базами данных, разнообразные скрипты и шаблоны. Не так давно у нас появился материал для автолюбителей и владельцев мото - оригинальные и неоригинальные каталоги запчастей, книги и журналы по ремонту и обслуживанию, видеоуроки, статьи по чип тюнингу, прошивкам. Процедура получения контента элементарная, достаточно просто скачать торрент файл и добавить его в загрузку в вашем торрент клиенте. Если у вас нет специального торрент клиента, вы можете его скачать у нас.